<?xml version="1.0" standalone="no"?>
<!DOCTYPE svg PUBLIC "-//W3C//DTD SVG 1.1//EN" "http://www.w3.org/Graphics/SVG/1.1/DTD/svg11.dtd" >
<svg xmlns="http://www.w3.org/2000/svg">
<metadata></metadata>
<defs>
<font id="source_code_proregular" horiz-adv-x="1228" >
<font-face units-per-em="2048" ascent="1536" descent="-512" />
<missing-glyph horiz-adv-x="500" />
<glyph />
<glyph />
<glyph unicode="&#xd;" />
<glyph unicode=" " />
<glyph unicode="!" d="M465 135q0 70 43 113t106 43t106.5 -43t43.5 -113q0 -72 -43.5 -116t-106.5 -44t-106 44t-43 116zM532 1372h164l-4 -192l-20 -705h-115l-20 705z" />
<glyph unicode="&#x22;" d="M266 1407h226l-3 -225l-53 -461h-114l-52 461zM737 1407h226l-5 -225l-51 -461h-114l-54 461z" />
<glyph unicode="#" d="M178 418v117h176l39 303h-174v118h187l49 375h108l-47 -375h270l50 375h108l-47 -375h166v-118h-178l-39 -303h176v-117h-191l-49 -418h-110l51 418h-272l-50 -418h-110l49 418h-162zM465 535h270l39 303h-272z" />
<glyph unicode="$" d="M174 231l80 117q192 -139 381 -139q118 0 183 49t65 129q0 45 -28 82.5t-73.5 63t-104 51.5t-119.5 47.5t-119.5 52.5t-104 65.5t-73.5 86.5t-28 116q0 128 90.5 211.5t241.5 98.5v270h123v-268q104 -8 180 -48t146 -108l-90 -98q-78 61 -142 88.5t-159 27.5 q-103 0 -164.5 -46t-61.5 -124q0 -45 36 -81.5t93.5 -62.5t127 -51t139 -56.5t127 -70t93.5 -99t36 -136.5q0 -131 -99.5 -219.5t-261.5 -105.5v-299h-123v297q-110 9 -213.5 52.5t-177.5 106.5z" />
<glyph unicode="%" d="M53 997q0 156 79.5 245t207.5 89q126 0 205.5 -89t79.5 -245q0 -157 -79.5 -248.5t-205.5 -91.5q-127 0 -207 91.5t-80 248.5zM59 158l375 385l66 -62l-342 -415zM180 997q0 -116 44.5 -177.5t115.5 -61.5q69 0 113.5 62t44.5 177q0 117 -43.5 174.5t-114.5 57.5 q-72 0 -116 -57.5t-44 -174.5zM604 317q0 155 79.5 243.5t205.5 88.5q128 0 207.5 -88.5t79.5 -243.5q0 -158 -80 -250t-207 -92q-126 0 -205.5 92t-79.5 250zM729 862l344 416l98 -92l-374 -385zM731 317q0 -116 44 -177.5t114 -61.5q71 0 115.5 61t44.5 178q0 116 -44 174 t-116 58q-70 0 -114 -58t-44 -174z" />
<glyph unicode="&#x26;" d="M86 348q0 63 20 119.5t58 104.5t78 84t96 77q-90 175 -90 318q0 136 82 226.5t213 90.5q122 0 191 -72.5t69 -193.5q0 -36 -9.5 -71t-22 -62.5t-39 -60t-44.5 -52.5t-56 -52t-56.5 -47t-61.5 -48q129 -206 328 -377q111 159 170 393h155q-78 -282 -217 -481 q122 -94 232 -129l-47 -140q-136 42 -281 154q-161 -154 -367 -154q-178 0 -289.5 104.5t-111.5 268.5zM250 358q0 -110 74 -178.5t184 -68.5q123 0 235 106q-202 180 -342 401q-73 -64 -112 -126t-39 -134zM393 1053q0 -106 62 -236q67 48 108 84.5t72 89.5t31 109 q0 64 -30 105.5t-93 41.5q-69 0 -109.5 -54.5t-40.5 -139.5z" />
<glyph unicode="'" d="M502 1407h225l-4 -225l-51 -461h-115l-51 461z" />
<glyph unicode="(" d="M426 569q0 289 120.5 524t340.5 406l92 -86q-205 -173 -303 -379.5t-98 -464.5t98 -464t303 -379l-92 -86q-220 171 -340.5 405.5t-120.5 523.5z" />
<glyph unicode=")" d="M250 -274q205 173 303 379t98 464t-98 464.5t-303 379.5l92 86q220 -171 340.5 -406t120.5 -524t-120.5 -523.5t-340.5 -405.5z" />
<glyph unicode="*" d="M213 1124l33 95l297 -84l22 323h99l22 -321l297 82l33 -95l-283 -127l178 -290l-86 -60l-211 268l-211 -268l-86 60l179 290z" />
<glyph unicode="+" d="M174 571v127h373v400h135v-400h373v-127h-373v-399h-135v399h-373z" />
<glyph unicode="," d="M403 -330q128 58 191.5 140t67.5 202q-24 -4 -39 -4q-69 0 -114.5 40t-45.5 114q0 72 47.5 113.5t116.5 41.5q89 0 136.5 -70t47.5 -192q0 -177 -94 -302t-266 -189z" />
<glyph unicode="-" d="M274 526v148h680v-148h-680z" />
<glyph unicode="." d="M449 147q0 77 47.5 126t117.5 49t118 -49t48 -126q0 -75 -48 -123.5t-118 -48.5t-117.5 48.5t-47.5 123.5z" />
<glyph unicode="/" d="M203 -328l671 1782h152l-672 -1782h-151z" />
<glyph unicode="0" d="M145 657q0 325 124 499.5t345 174.5t345 -174.5t124 -499.5q0 -324 -124.5 -503t-344.5 -179t-344.5 179t-124.5 503zM303 657q0 -271 84 -408.5t227 -137.5t227.5 137.5t84.5 408.5q0 272 -84.5 405.5t-227.5 133.5t-227 -133.5t-84 -405.5zM487 672q0 61 37 98t90 37 t90 -37t37 -98q0 -62 -37 -99.5t-90 -37.5t-90 37.5t-37 99.5z" />
<glyph unicode="1" d="M201 0v139h370v963h-278v108q187 27 321 97h125v-1168h342v-139h-880z" />
<glyph unicode="2" d="M141 1133q95 97 197.5 147.5t232.5 50.5q195 0 310.5 -105.5t115.5 -279.5q0 -60 -18.5 -121.5t-59.5 -127.5t-88 -127t-123 -138.5t-143.5 -141.5t-169.5 -157q160 12 244 12h430v-145h-919v100q127 112 206 184t166.5 157t137.5 144.5t94.5 124t63 119.5t18.5 109 q0 117 -72.5 186.5t-212.5 69.5q-162 0 -313 -158z" />
<glyph unicode="3" d="M117 160l86 110q163 -155 375 -155q136 0 224.5 66t88.5 173q0 260 -475 260v129q220 0 324 67t104 177q0 95 -72.5 151t-193.5 56q-175 0 -322 -133l-90 106q190 164 418 164q190 0 311 -89t121 -243q0 -113 -75 -191t-204 -120v-8q140 -30 232 -117t92 -215 q0 -112 -64.5 -198t-171 -130.5t-237.5 -44.5q-286 0 -471 185z" />
<glyph unicode="4" d="M80 360v113l653 834h180v-811h203v-136h-203v-360h-159v360h-674zM266 496h488v405q3 104 10 232h-10q-23 -36 -70.5 -102t-62.5 -89z" />
<glyph unicode="5" d="M115 154l84 110q77 -70 162.5 -109.5t205.5 -39.5q141 0 236.5 82.5t95.5 216.5t-86.5 210t-234.5 76q-76 0 -133.5 -18.5t-133.5 -60.5l-90 57l43 629h740v-146h-590l-35 -387q122 53 242 53q96 0 176 -24.5t141.5 -73.5t96 -128.5t34.5 -182.5q0 -136 -69.5 -239 t-177.5 -153.5t-236 -50.5q-159 0 -270 49t-201 130z" />
<glyph unicode="6" d="M158 604q0 153 29.5 276.5t80.5 206.5t121.5 138.5t149 80.5t166.5 25q215 0 364 -139l-94 -105q-111 103 -260 103q-82 0 -150.5 -29.5t-125 -92.5t-89.5 -175t-35 -264q79 79 176.5 124.5t194.5 45.5q187 0 297.5 -104t110.5 -300q0 -121 -60.5 -218.5t-160 -149.5 t-216.5 -52q-223 0 -361 162.5t-138 466.5zM322 496q19 -188 105.5 -287.5t229.5 -99.5q119 0 198 79.5t79 206.5q0 134 -72 205.5t-207 71.5q-179 0 -333 -176z" />
<glyph unicode="7" d="M143 1161v146h947v-105q-172 -196 -267.5 -377.5t-135 -368.5t-48.5 -456h-176q17 372 113.5 628.5t320.5 532.5h-754z" />
<glyph unicode="8" d="M139 334q0 215 281 348v8q-199 124 -199 305q0 149 114 242.5t290 93.5q189 0 297 -96.5t108 -251.5q0 -87 -55.5 -168.5t-143.5 -142.5v-8q60 -30 101 -58t79 -68t57 -93.5t19 -120.5q0 -151 -125.5 -250t-343.5 -99t-348.5 100.5t-130.5 258.5zM293 350 q0 -110 90.5 -180t239.5 -70q143 0 223 63t80 167q0 49 -20.5 88.5t-44 64.5t-81.5 53t-92.5 40.5t-118.5 40.5q-35 12 -53 18q-106 -59 -164.5 -126.5t-58.5 -158.5zM375 995q0 -56 25 -100t76.5 -77.5t106.5 -56t138 -48.5q164 121 164 262q0 101 -69.5 166t-194.5 65 q-109 0 -177.5 -58t-68.5 -153z" />
<glyph unicode="9" d="M137 911q0 121 60.5 218.5t159 149.5t214.5 52q108 0 199 -40t159 -116.5t106 -197.5t38 -275q0 -189 -45 -333t-123 -228t-173.5 -125t-205.5 -41q-212 0 -364 138l94 106q109 -104 260 -104q64 0 120 18t106.5 59.5t87 105t59 160t24.5 218.5q-81 -80 -176.5 -124 t-193.5 -44q-187 0 -296.5 103.5t-109.5 299.5zM297 911q0 -134 71 -205t207 -71q80 0 166.5 42.5t167.5 131.5q-20 191 -105.5 290t-230.5 99q-119 0 -197.5 -80t-78.5 -207z" />
<glyph unicode=":" d="M449 147q0 77 47.5 126t117.5 49t118 -49t48 -126q0 -75 -48 -123.5t-118 -48.5t-117.5 48.5t-47.5 123.5zM449 883q0 75 47.5 123.5t117.5 48.5t118 -48.5t48 -123.5q0 -77 -48 -125.5t-118 -48.5t-117.5 48.5t-47.5 125.5z" />
<glyph unicode=";" d="M403 -330q128 58 191.5 140t67.5 202q-24 -4 -39 -4q-69 0 -114.5 40t-45.5 114q0 72 47.5 113.5t116.5 41.5q89 0 136.5 -70t47.5 -192q0 -177 -94 -302t-266 -189zM449 883q0 75 47.5 123.5t117.5 48.5t118 -48.5t48 -123.5q0 -77 -48 -125.5t-118 -48.5t-117.5 48.5 t-47.5 125.5z" />
<glyph unicode="&#x3c;" d="M246 575v127l764 519v-162l-617 -416v-8l617 -416v-162z" />
<glyph unicode="=" d="M174 352v127h881v-127h-881zM174 791v127h881v-127h-881z" />
<glyph unicode="&#x3e;" d="M219 57v162l617 416v8l-617 416v162l764 -519v-127z" />
<glyph unicode="?" d="M223 1231q159 166 377 166q171 0 276 -87.5t105 -232.5q0 -54 -20.5 -103t-52.5 -87.5t-70.5 -75t-75.5 -73t-66.5 -74.5t-44 -86.5t-6.5 -102.5h-149q-10 60 2 113.5t39.5 94.5t63 78.5t73.5 72.5t69.5 68.5t51.5 74t20 82.5q0 88 -58 143t-167 55q-148 0 -266 -118z M436 135q0 70 43.5 113t106.5 43t106 -43t43 -113q0 -72 -43 -116t-106 -44t-106.5 44t-43.5 116z" />
<glyph unicode="@" d="M100 512q0 191 46.5 342.5t128 248t190.5 147t237 50.5q137 0 232.5 -65t139.5 -173t44 -249v-608h-102l-15 119h-8q-47 -61 -120.5 -102.5t-149.5 -41.5q-112 0 -188 74t-76 195q0 152 134.5 234.5t405.5 115.5v28q0 103 -30.5 182t-101 129t-173.5 50q-94 0 -177 -43.5 t-147.5 -126.5t-102.5 -215t-38 -297q0 -161 36.5 -292t100.5 -217t150 -132.5t186 -46.5q164 0 289 92l58 -92q-162 -113 -351 -113q-123 0 -230.5 53t-190 152.5t-130 254.5t-47.5 347zM594 453q0 -72 44.5 -113t119.5 -41q113 0 229 131v258q-210 -29 -301.5 -84.5 t-91.5 -150.5z" />
<glyph unicode="A" d="M66 0l452 1343h193l452 -1343h-180l-127 410h-487l-129 -410h-174zM412 547h401l-63 205q-78 250 -134 452h-8q-63 -229 -133 -452z" />
<glyph unicode="B" d="M211 0v1343h369q105 0 187.5 -18t144.5 -56.5t95 -102t33 -150.5q0 -104 -60.5 -183.5t-174.5 -109.5v-8q150 -24 230.5 -105t80.5 -217q0 -192 -137 -292.5t-369 -100.5h-399zM383 135h203q175 0 268.5 66t93.5 200q0 242 -362 242h-203v-508zM383 770h168 q168 0 244.5 58t76.5 173q0 107 -77.5 157t-235.5 50h-176v-438z" />
<glyph unicode="C" d="M135 672q0 319 166.5 507.5t433.5 188.5q113 0 207.5 -46t159.5 -118l-96 -108q-116 123 -271 123q-194 0 -309 -146.5t-115 -396.5q0 -253 115 -402t309 -149q168 0 301 149l99 -104q-168 -195 -410 -195q-127 0 -235 48t-187 136t-123.5 220t-44.5 293z" />
<glyph unicode="D" d="M174 0v1343h328q303 0 462.5 -172t159.5 -493q0 -323 -159 -500.5t-455 -177.5h-336zM344 139h148q226 0 341 140t115 399q0 256 -114.5 391t-341.5 135h-148v-1065z" />
<glyph unicode="E" d="M236 0v1343h829v-143h-657v-422h555v-145h-555v-488h677v-145h-849z" />
<glyph unicode="F" d="M276 0v1343h822v-143h-652v-455h551v-143h-551v-602h-170z" />
<glyph unicode="G" d="M109 672q0 321 165.5 508.5t430.5 187.5q214 0 370 -164l-96 -108q-56 59 -120 91t-154 32q-190 0 -304 -147t-114 -396q0 -256 108.5 -403.5t304.5 -147.5q70 0 133 21.5t101 58.5v350h-268v141h426v-565q-69 -69 -173.5 -112.5t-228.5 -43.5q-258 0 -419.5 187 t-161.5 510z" />
<glyph unicode="H" d="M162 0v1343h172v-563h561v563h172v-1343h-172v633h-561v-633h-172z" />
<glyph unicode="I" d="M195 0v145h333v1055h-333v143h839v-143h-334v-1055h334v-145h-839z" />
<glyph unicode="J" d="M166 199l110 102q57 -87 131 -131.5t154 -44.5q145 0 212 76.5t67 242.5v758h-564v144h734v-916q0 -78 -14 -143.5t-47 -124t-83 -99.5t-126.5 -64.5t-174.5 -23.5q-120 0 -226.5 56t-172.5 168z" />
<glyph unicode="K" d="M201 0v1343h172v-673h6l565 673h193l-424 -512l473 -831h-191l-389 698l-233 -272v-426h-172z" />
<glyph unicode="L" d="M274 0v1343h168v-1198h666v-145h-834z" />
<glyph unicode="M" d="M166 0v1343h188l191 -571l67 -217h9l65 217l188 571h189v-1343h-145v756q0 141 20 413h-6l-88 -286l-185 -518h-92l-184 518l-90 286h-6q22 -300 22 -413v-756h-143z" />
<glyph unicode="N" d="M170 0v1343h174l436 -847l135 -275h5q-1 32 -12 188t-11 238v696h162v-1343h-174l-436 848l-136 274h-4q2 -40 12.5 -190t10.5 -230v-702h-162z" />
<glyph unicode="O" d="M98 678q0 318 142.5 504t373.5 186q230 0 373 -186.5t143 -503.5q0 -321 -143 -512t-373 -191t-373 191t-143 512zM274 678q0 -252 93 -402.5t247 -150.5t247 150.5t93 402.5q0 249 -92.5 395t-247.5 146t-247.5 -146t-92.5 -395z" />
<glyph unicode="P" d="M209 0v1343h412q115 0 203 -20.5t155 -66t102 -123t35 -185.5q0 -206 -133 -311t-362 -105h-242v-532h-170zM379 672h219q178 0 263 67t85 209t-83.5 200t-264.5 58h-219v-534z" />
<glyph unicode="Q" d="M100 678q0 319 140.5 505.5t371.5 186.5q230 0 370 -187t140 -505q0 -284 -111.5 -468.5t-299.5 -223.5q33 -85 108.5 -129.5t181.5 -44.5q51 0 101 20l31 -137q-78 -29 -152 -29q-170 0 -284.5 86.5t-168.5 231.5q-195 34 -311.5 219.5t-116.5 474.5zM274 678 q0 -252 91.5 -403.5t246.5 -151.5q153 0 244.5 152t91.5 403q0 250 -91 397.5t-245 147.5q-155 0 -246.5 -147.5t-91.5 -397.5z" />
<glyph unicode="R" d="M205 0v1343h418q469 0 469 -376q0 -152 -80 -248t-221 -133l342 -586h-195l-324 567h-239v-567h-170zM375 707h223q158 0 241 65.5t83 194.5q0 128 -80.5 183.5t-243.5 55.5h-223v-499z" />
<glyph unicode="S" d="M137 174l103 119q77 -77 178.5 -122.5t208.5 -45.5q141 0 220 59.5t79 159.5q0 29 -7 53.5t-16.5 43t-29.5 37t-35.5 30t-46.5 26.5t-50 23.5t-57 24.5l-192 84q-291 114 -291 346q0 154 124 255t316 101q122 0 230 -45t184 -121l-90 -110q-143 127 -324 127 q-122 0 -194 -53t-72 -144q0 -27 8.5 -51t18 -41t32.5 -35.5t36.5 -28t47 -25.5t46 -21t50.5 -21l189 -82q68 -28 117.5 -57.5t92.5 -72t65 -100t22 -129.5q0 -164 -129.5 -273.5t-345.5 -109.5q-144 0 -269 52.5t-219 146.5z" />
<glyph unicode="T" d="M86 1200v143h1057v-143h-443v-1200h-172v1200h-442z" />
<glyph unicode="U" d="M162 508v835h172v-839q0 -199 75.5 -289t206.5 -90t208 90.5t77 288.5v839h166v-835q0 -275 -121 -404t-330 -129q-102 0 -183 29.5t-142.5 92t-95 166.5t-33.5 245z" />
<glyph unicode="V" d="M88 1343h180l217 -725q14 -46 57.5 -199.5t71.5 -244.5h9q44 143 129 444l215 725h174l-426 -1343h-199z" />
<glyph unicode="W" d="M20 1346h170l109 -844q3 -62 14.5 -174t14.5 -158h6q76 291 86 332l141 495h121l141 -495q20 -86 84 -332h8q4 56 14.5 166.5t14.5 165.5l103 844h161l-198 -1346h-189l-153 563q-34 153 -50 242h-6q-30 -150 -53 -242l-147 -563h-185z" />
<glyph unicode="X" d="M111 0l401 694l-375 649h189l188 -344q52 -91 109 -194h8q64 134 96 194l184 344h181l-375 -657l401 -686h-188l-203 362q-22 39 -119 216h-8q-57 -120 -108 -216l-201 -362h-180z" />
<glyph unicode="Y" d="M78 1343h180l203 -399q23 -47 73.5 -151t79.5 -162h9q28 58 81 163t76 152l195 397h176l-451 -864v-479h-172v479z" />
<glyph unicode="Z" d="M133 0v102l752 1100h-686v144h895v-103l-754 -1098h764v-145h-971z" />
<glyph unicode="[" d="M463 -311v1761h565v-98h-432v-1565h432v-98h-565z" />
<glyph unicode="\" d="M203 1454h151l672 -1782h-152z" />
<glyph unicode="]" d="M203 -213h430v1565h-430v98h565v-1761h-565v98z" />
<glyph unicode="^" d="M227 582l314 790h147l313 -790h-147l-135 360l-101 272h-8l-100 -272l-135 -360h-148z" />
<glyph unicode="_" d="M123 -141h983v-146h-983v146z" />
<glyph unicode="`" d="M379 1477h184l185 -303h-130z" />
<glyph unicode="a" d="M166 258q0 168 168 255t553 118q-3 112 -66 181t-198 69q-157 0 -349 -119l-65 115q89 59 206 101t236 42q199 0 301.5 -109.5t102.5 -300.5v-610h-137l-15 135h-6q-207 -160 -393 -160q-144 0 -241 76.5t-97 206.5zM330 270q0 -80 62.5 -119.5t156.5 -39.5 q161 0 338 147v262q-208 -17 -333 -52t-174.5 -82.5t-49.5 -115.5z" />
<glyph unicode="b" d="M190 0v1458h168v-397l-4 -193q72 70 161.5 111t176.5 41q198 0 306 -136t108 -370q0 -124 -37 -227t-99.5 -170.5t-143.5 -104.5t-171 -37q-72 0 -155.5 36.5t-153.5 99.5h-6l-14 -111h-136zM358 233q66 -59 138.5 -87.5t132.5 -28.5q133 0 218 107t85 288 q0 172 -68.5 269.5t-212.5 97.5q-143 0 -293 -150v-496z" />
<glyph unicode="c" d="M164 496q0 122 44.5 222.5t120.5 165.5t176.5 100.5t213.5 35.5q212 0 362 -146l-84 -108q-131 115 -272 115q-172 0 -279.5 -106.5t-107.5 -278.5q0 -170 105.5 -275.5t277.5 -105.5q159 0 309 125l74 -109q-174 -156 -395 -156q-156 0 -279 60.5t-194.5 180 t-71.5 280.5z" />
<glyph unicode="d" d="M123 496q0 118 37.5 218t100 166t144 103t170.5 37q86 0 157 -32.5t145 -96.5l-7 184v383h168v-1458h-139l-14 131h-6q-67 -68 -152 -112t-172 -44q-198 0 -315 137.5t-117 383.5zM297 498q0 -179 77.5 -280t215.5 -101q146 0 280 149v496q-125 117 -262 117 q-131 0 -221 -107t-90 -274z" />
<glyph unicode="e" d="M141 496q0 118 42.5 218.5t113.5 166.5t162 102.5t188 36.5q212 0 332.5 -127t120.5 -340q0 -55 -6 -92h-779q9 -160 113 -255t268 -95q155 0 303 92l60 -111q-182 -117 -383 -117q-111 0 -208 36t-170 101.5t-115 165t-42 218.5zM313 571h631q0 151 -78 233.5t-217 82.5 q-126 0 -222 -85t-114 -231z" />
<glyph unicode="f" d="M211 858v127l285 10v84q0 189 100.5 296.5t300.5 107.5q147 0 287 -58l-39 -127q-106 48 -232 48q-251 0 -251 -261v-90h417v-137h-417v-858h-166v858h-285z" />
<glyph unicode="g" d="M147 -182q0 60 42.5 118t121.5 103v8q-102 56 -102 164q0 48 31.5 98t87.5 88v9q-55 41 -89 107t-34 151q0 158 114 257t277 99q80 0 147 -25h412v-129h-266q92 -96 92 -209q0 -156 -109.5 -249t-275.5 -93q-87 0 -168 37q-78 -49 -78 -114q0 -115 207 -115h223 q195 0 287 -55t92 -179q0 -144 -153.5 -246t-399.5 -102q-218 0 -338.5 72.5t-120.5 204.5zM293 -166q0 -80 84.5 -128t240.5 -48q166 0 270.5 62t104.5 143q0 68 -54 94.5t-173 26.5h-195q-94 0 -151 16q-127 -69 -127 -166zM367 664q0 -105 66.5 -170.5t162.5 -65.5 q97 0 163 65.5t66 170.5q0 103 -66 168t-163 65q-96 0 -162.5 -65.5t-66.5 -167.5z" />
<glyph unicode="h" d="M190 0v1458h168v-397l-8 -236q89 93 178.5 144t198.5 51q344 0 344 -402v-618h-168v596q0 143 -54 210.5t-175 67.5q-85 0 -153.5 -41.5t-162.5 -138.5v-694h-168z" />
<glyph unicode="i" d="M184 858v137h631v-995h-168v858h-463zM578 1329q0 59 38 95t97 36q58 0 96.5 -36t38.5 -95q0 -58 -38.5 -93.5t-96.5 -35.5q-59 0 -97 35.5t-38 93.5z" />
<glyph unicode="j" d="M113 -377l55 125q113 -55 227 -55q142 0 197 67t55 203v895h-463v137h631v-1020q0 -97 -20.5 -170t-67 -131t-129.5 -88t-201 -30q-147 0 -284 67zM578 1329q0 59 38 95t97 36q58 0 96.5 -36t38.5 -95q0 -58 -38.5 -93.5t-96.5 -35.5q-59 0 -97 35.5t-38 93.5z" />
<glyph unicode="k" d="M217 0v1458h168v-987l6 2l539 522h192l-397 -395l451 -600h-189l-366 492l-236 -226v-266h-168z" />
<glyph unicode="l" d="M166 1321v137h508v-1136q0 -106 51 -156.5t143 -50.5q84 0 189 47l43 -127q-61 -22 -89 -31.5t-78.5 -19t-101.5 -9.5q-159 0 -242 91.5t-83 267.5v987h-340z" />
<glyph unicode="m" d="M123 0v995h131l14 -131h6q40 76 92.5 116t131.5 40q151 0 188 -172q48 85 103 128.5t133 43.5q103 0 160 -79.5t57 -227.5v-713h-162v698q0 176 -109 176q-52 0 -91 -36.5t-79 -116.5v-721h-135v698q0 176 -112 176q-51 0 -88.5 -36.5t-77.5 -116.5v-721h-162z" />
<glyph unicode="n" d="M190 0v995h140l14 -170h8q87 93 176.5 144t198.5 51q344 0 344 -402v-618h-168v596q0 143 -54 210.5t-175 67.5q-85 0 -153.5 -41.5t-162.5 -138.5v-694h-168z" />
<glyph unicode="o" d="M123 496q0 122 40 222.5t107.5 165.5t156 100.5t187.5 35.5t187.5 -35.5t156.5 -100.5t108 -165.5t40 -222.5q0 -120 -40 -220t-108 -165t-156.5 -100.5t-187.5 -35.5t-187.5 35.5t-156 100.5t-107.5 165t-40 220zM297 496q0 -170 87.5 -275.5t229.5 -105.5t230 105.5 t88 275.5q0 172 -88 278.5t-230 106.5t-229.5 -106.5t-87.5 -278.5z" />
<glyph unicode="p" d="M190 -420v1415h140l14 -127h6q72 68 163.5 110t180.5 42q198 0 305 -136t107 -372q0 -123 -37 -226t-99.5 -170t-144.5 -104t-172 -37q-70 0 -151.5 34.5t-147.5 94.5l4 -188v-336h-168zM358 233q66 -59 138 -87.5t129 -28.5q136 0 221.5 106.5t85.5 288.5 q0 172 -68.5 269.5t-212.5 97.5q-143 0 -293 -150v-496z" />
<glyph unicode="q" d="M123 496q0 118 37.5 218t100 166t144 103t170.5 37q88 0 161.5 -33.5t146.5 -101.5h6l14 110h135v-1415h-168v367l9 180q-159 -152 -324 -152q-198 0 -315 137.5t-117 383.5zM297 498q0 -179 77.5 -280t215.5 -101q146 0 280 149v496q-125 117 -262 117q-131 0 -221 -107 t-90 -274z" />
<glyph unicode="r" d="M299 0v995h139l15 -235h6q80 123 194.5 191.5t249.5 68.5q114 0 195 -41l-35 -145q-55 20 -92.5 27t-93.5 7q-247 0 -410 -284v-584h-168z" />
<glyph unicode="s" d="M147 131l82 111q90 -66 188 -101t224 -35q128 0 197 44t69 112q0 60 -72.5 105t-250.5 88q-109 27 -190.5 64t-135 94t-53.5 124q0 125 109.5 204t308.5 79q107 0 213.5 -36t185.5 -91l-82 -109q-151 105 -317 105q-130 0 -188 -39.5t-58 -104.5q0 -30 21 -55.5t63.5 -47 t94.5 -38.5t124 -35q209 -53 303 -120t94 -177q0 -127 -118 -212t-324 -85q-263 0 -488 156z" />
<glyph unicode="t" d="M141 858v127l287 10l23 279h139v-279h487v-137h-487v-473q0 -140 56 -206t196 -66q122 0 239 45l35 -123q-160 -60 -311 -60q-106 0 -181.5 29t-119 85t-63 129t-19.5 169v471h-281z" />
<glyph unicode="u" d="M158 377v618h170v-596q0 -144 53.5 -211t175.5 -67q84 0 154 42.5t155 141.5v690h168v-995h-137l-14 174h-9q-170 -199 -370 -199q-346 0 -346 402z" />
<glyph unicode="v" d="M104 995h170l230 -565q32 -77 112 -293h9q6 15 45 124.5t63 168.5l230 565h161l-411 -995h-189z" />
<glyph unicode="w" d="M16 995h170l123 -575q33 -174 49 -277h9q37 189 59 277l123 516h139l127 -516q56 -263 59 -277h9q14 73 49 277l121 575h159l-215 -995h-204l-119 504q-28 145 -56 289h-8q-49 -264 -55 -291l-115 -502h-200z" />
<glyph unicode="x" d="M131 0l379 516l-350 479h186l158 -219q64 -97 117 -168h8q47 70 112 172l150 215h178l-354 -493l381 -502h-185l-174 229q-114 158 -131 181h-8q-82 -118 -123 -181l-164 -229h-180z" />
<glyph unicode="y" d="M100 995h170l244 -551q17 -39 37.5 -87t46 -108.5t39.5 -92.5h8q92 247 107 288l217 551h159l-438 -1077q-130 -346 -422 -346q-73 0 -131 20l35 134q51 -15 90 -15q188 0 273 213l30 74z" />
<glyph unicode="z" d="M145 0v90l682 768h-606v137h848v-90l-684 -768h705v-137h-945z" />
<glyph unicode="{" d="M246 516v107q297 2 297 159q0 63 -9.5 193.5t-9.5 202.5q0 153 89 212.5t290 59.5h125v-98h-106q-104 0 -159 -19.5t-75 -57.5t-20 -108q0 -57 6 -181t6 -189q0 -102 -41 -154t-145 -70v-8q104 -18 145 -69.5t41 -153.5q0 -71 -6 -190.5t-6 -180.5q0 -104 51 -144 t203 -40h106v-98h-125q-201 0 -290 59.5t-89 212.5q0 77 9.5 202.5t9.5 192.5q0 158 -297 160z" />
<glyph unicode="|" d="M555 -512v2048h119v-2048h-119z" />
<glyph unicode="}" d="M203 -213h104q104 0 159.5 19t76 57t20.5 108q0 61 -6 180.5t-6 190.5q0 102 40.5 153.5t143.5 69.5v8q-103 18 -143.5 69.5t-40.5 154.5q0 65 6 189t6 181q0 104 -52 144.5t-204 40.5h-104v98h125q199 0 288 -59.5t89 -212.5q0 -72 -9.5 -202.5t-9.5 -193.5 q0 -157 297 -159v-107q-297 -2 -297 -160q0 -67 9.5 -192.5t9.5 -202.5q0 -153 -89 -212.5t-288 -59.5h-125v98z" />
<glyph unicode="~" d="M156 528q96 256 278 256q54 0 108.5 -27t91 -59t81.5 -59t84 -27q52 0 92.5 38t73.5 138l108 -49q-96 -254 -278 -254q-54 0 -108.5 27t-91 59t-81.5 59t-84 27q-52 0 -92.5 -38.5t-73.5 -137.5z" />
<glyph unicode="&#xa0;" />
<glyph unicode="&#xa1;" d="M465 862q0 70 43 114t106 44t106.5 -44t43.5 -114q0 -71 -43 -114t-107 -43t-106.5 42.5t-42.5 114.5zM532 -377l5 193l20 704h115l20 -704l4 -193h-164z" />
<glyph unicode="&#xa2;" d="M231 635q0 205 115.5 333t296.5 152v217h105v-211q150 -8 268 -118l-82 -107q-87 81 -186 86v-704q112 8 215 96l73 -107q-134 -117 -288 -129v-211h-105v213q-187 21 -299.5 149.5t-112.5 340.5zM397 635q0 -136 65 -227t181 -117v686q-115 -26 -180.5 -117t-65.5 -225z " />
<glyph unicode="&#xa3;" d="M158 584v106l202 8q-2 6 -11.5 31.5t-12 33.5t-10 30.5t-10.5 33.5t-8 30.5t-7 33t-4 30.5t-2 33q0 173 117 275t313 102q221 0 360 -153l-98 -97q-109 109 -254 109q-131 0 -203.5 -66t-72.5 -174q0 -40 10.5 -88t19.5 -76t31 -88h387v-114h-354q12 -55 12 -115 q0 -104 -37 -177t-116 -138v-9h677v-145h-927v102q124 56 189 153t65 216q0 50 -17 113h-239z" />
<glyph unicode="&#xa4;" d="M119 262l172 174q-74 99 -74 238q0 138 72 239l-170 177l90 92l178 -185q98 76 227 76q126 0 228 -76l178 185l90 -92l-172 -177q74 -99 74 -239q0 -134 -74 -238l172 -174l-90 -92l-180 182q-96 -78 -226 -78q-126 0 -227 78l-178 -182zM373 674q0 -121 69.5 -198 t171.5 -77t172 77t70 198t-70 197.5t-172 76.5t-171.5 -76.5t-69.5 -197.5z" />
<glyph unicode="&#xa5;" d="M109 1307h174l188 -351q20 -39 66.5 -131.5t74.5 -144.5h9q109 214 143 276l188 351h168l-381 -656h332v-96h-375v-133h375v-98h-375v-324h-168v324h-370v98h370v133h-370v96h329z" />
<glyph unicode="&#xa6;" d="M555 438h119v-950h-119v950zM555 596v940h119v-940h-119z" />
<glyph unicode="&#xa7;" d="M186 702q0 169 187 267q-64 71 -64 166q0 112 81 189t228 77q178 0 330 -117l-82 -108q-124 94 -239 94q-82 0 -123 -36.5t-41 -92.5q0 -39 25 -72t65.5 -55.5t92.5 -47t106.5 -46.5t106.5 -54t92.5 -68.5t65.5 -92.5t25 -123q0 -93 -47 -156t-137 -111q60 -70 60 -165 q0 -122 -92.5 -201.5t-237.5 -79.5q-111 0 -206.5 38.5t-160.5 106.5l103 92q58 -53 120 -79.5t144 -26.5q81 0 128.5 40.5t47.5 100.5q0 47 -32 84t-83 63.5t-112.5 51.5t-123 56t-112.5 69.5t-83 99t-32 137.5zM332 713q0 -51 26.5 -91.5t75.5 -70.5t99 -52.5t117 -51.5 t110 -54q70 31 103.5 70.5t33.5 105.5q0 52 -26 93.5t-75 72t-98.5 53t-117 52t-109.5 53.5q-139 -71 -139 -180z" />
<glyph unicode="&#xa8;" d="M307 1317q0 48 31 80.5t80 32.5q47 0 78.5 -32.5t31.5 -80.5t-31.5 -80.5t-78.5 -32.5q-49 0 -80 32.5t-31 80.5zM700 1317q0 47 32 80t79 33q49 0 80 -32.5t31 -80.5t-31 -80.5t-80 -32.5q-47 0 -79 33t-32 80z" />
<glyph unicode="&#xa9;" d="M61 662q0 154 42.5 281.5t116.5 213.5t175.5 133t218.5 47t218.5 -47t175.5 -133t116.5 -213.5t42.5 -281.5q0 -308 -157 -496.5t-396 -188.5t-396 188.5t-157 496.5zM156 662q0 -269 126.5 -434t331.5 -165q206 0 332.5 165.5t126.5 433.5t-126.5 429.5t-332.5 161.5 t-332 -161.5t-126 -429.5zM299 662q0 173 99.5 280t238.5 107q120 0 213 -97l-70 -80q-71 64 -137 64q-93 0 -151 -76.5t-58 -197.5q0 -134 55 -213.5t146 -79.5q83 0 166 69l61 -86q-106 -96 -231 -96q-142 0 -237 110.5t-95 295.5z" />
<glyph unicode="&#xaa;" d="M342 707q0 106 104 163.5t328 81.5q-4 152 -143 152q-93 0 -211 -70l-51 88q147 86 282 86q127 0 190.5 -72t63.5 -204v-400h-106l-11 76h-4q-119 -92 -231 -92q-90 0 -150.5 52.5t-60.5 138.5zM471 715q0 -48 33.5 -72.5t87.5 -24.5q84 0 182 82v168 q-162 -18 -232.5 -55.5t-70.5 -97.5z" />
<glyph unicode="&#xab;" d="M168 434v164l313 328l80 -72l-260 -338l260 -340l-80 -70zM639 434v164l311 328l82 -72l-260 -338l260 -340l-82 -70z" />
<glyph unicode="&#xac;" d="M174 571v127h881v-526h-135v399h-746z" />
<glyph unicode="&#xad;" d="M274 526v148h680v-148h-680z" />
<glyph unicode="&#xae;" d="M229 1057q0 177 111 290t274 113q162 0 273.5 -113t111.5 -290t-112 -290.5t-273 -113.5q-163 0 -274 113.5t-111 290.5zM309 1057q0 -145 87 -236.5t218 -91.5t217.5 91.5t86.5 236.5q0 144 -87 236.5t-217 92.5t-217.5 -93t-87.5 -236zM465 854v416h156q71 0 116 -32 t45 -101q0 -37 -21.5 -69t-55.5 -44l94 -170h-94l-72 143h-84v-143h-84zM549 1063h53q42 0 66 18.5t24 51.5q0 67 -86 67h-57v-137z" />
<glyph unicode="&#xaf;" d="M362 1231v117h504v-117h-504z" />
<glyph unicode="&#xb0;" d="M358 1139q0 118 75 191t181 73q107 0 182.5 -73t75.5 -191q0 -115 -76 -187.5t-182 -72.5t-181 72.5t-75 187.5zM461 1139q0 -72 43 -119t110 -47q69 0 112.5 47t43.5 119q0 75 -43.5 122.5t-112.5 47.5q-68 0 -110.5 -47.5t-42.5 -122.5z" />
<glyph unicode="&#xb1;" d="M174 0v127h881v-127h-881zM174 596v127h373v375h135v-375h373v-127h-373v-363h-135v363h-373z" />
<glyph unicode="&#xb2;" d="M354 1425q106 125 244 125q111 0 173.5 -55t62.5 -156q0 -38 -16.5 -76t-52.5 -79t-71 -75t-92 -85q-11 -9 -16 -14h278v-109h-487v74q92 70 143.5 112t99.5 87.5t67.5 80.5t19.5 68q0 56 -33 88.5t-92 32.5q-80 0 -146 -86z" />
<glyph unicode="&#xb3;" d="M352 987l66 80q32 -38 82 -63t104 -25q59 0 93 23.5t34 72.5q0 105 -196 105v77q82 0 123.5 28t41.5 77q0 88 -112 88q-36 0 -77.5 -19.5t-72.5 -50.5l-61 78q39 42 102 67t133 25q97 0 157 -46t60 -126q0 -59 -27 -95t-87 -58q68 -15 106.5 -55.5t38.5 -102.5 q0 -88 -70 -139t-178 -51q-71 0 -140 29t-120 81z" />
<glyph unicode="&#xb4;" d="M481 1174l185 303h184l-240 -303h-129z" />
<glyph unicode="&#xb5;" d="M172 -410v1405h168v-608q0 -140 52 -203t169 -63q82 0 147 39.5t146 132.5v702h168v-995h-139l-15 162h-8q-131 -178 -309 -178q-77 0 -129.5 20.5t-91.5 75.5l10 -193v-297h-168z" />
<glyph unicode="&#xb6;" d="M147 907q0 117 36 203t102.5 136t151.5 73.5t192 23.5h88v-880h-66q-111 0 -201.5 26.5t-159 79.5t-106 139t-37.5 199zM827 -164v1507h166v-1507h-166z" />
<glyph unicode="&#xb7;" d="M449 711q0 76 47.5 125t117.5 49t118 -49t48 -125q0 -75 -48 -123.5t-118 -48.5t-117.5 48.5t-47.5 123.5z" />
<glyph unicode="&#xb8;" d="M455 -352q180 24 180 98q0 38 -31.5 61t-97.5 39l82 160h110l-53 -108q121 -41 121 -146q0 -83 -83.5 -129.5t-211.5 -58.5z" />
<glyph unicode="&#xb9;" d="M426 1372v86q106 16 195 68h102v-625h-129v471h-168z" />
<glyph unicode="&#xba;" d="M291 862q0 158 94 252t229 94q136 0 230 -93.5t94 -252.5t-94 -252.5t-230 -93.5q-135 0 -229 94t-94 252zM426 862q0 -108 50.5 -173.5t137.5 -65.5t138 65.5t51 173.5q0 107 -51 173.5t-138 66.5t-137.5 -66.5t-50.5 -173.5z" />
<glyph unicode="&#xbb;" d="M197 176l260 340l-260 338l82 72l311 -328v-164l-311 -328zM668 176l260 340l-260 338l80 72l313 -328v-164l-313 -328z" />
<glyph unicode="&#xbc;" d="M57 158l375 385l68 -62l-342 -415zM152 1153v86q65 10 107 25.5t85 42.5h105v-625h-130v471h-167zM627 150v63l303 412h145v-387h103v-88h-103v-150h-117v150h-331zM729 862l342 416l100 -92l-374 -385zM758 238h200v114l11 168h-8l-93 -133z" />
<glyph unicode="&#xbd;" d="M57 158l375 385l68 -62l-342 -415zM152 1153v86q65 10 107 25.5t85 42.5h105v-625h-130v471h-167zM631 524q102 125 241 125q111 0 174.5 -55.5t63.5 -155.5q0 -49 -35 -104.5t-70.5 -91t-117.5 -110.5l-8 -8t-8 -7t-9 -8h279v-109h-490v74q92 70 143.5 112t99.5 87.5 t67.5 80.5t19.5 68q0 56 -33 88.5t-92 32.5q-79 0 -145 -86zM729 862l342 416l100 -92l-374 -385z" />
<glyph unicode="&#xbe;" d="M78 768l63 80q34 -39 84.5 -64.5t102.5 -25.5q58 0 92.5 24t34.5 72q0 107 -195 107v77q82 0 124 28t42 75q0 41 -28 64.5t-85 23.5q-37 0 -78.5 -18.5t-72.5 -49.5l-62 78q40 42 103.5 67t134.5 25q95 0 156 -47t61 -125q0 -58 -27.5 -94.5t-87.5 -58.5 q68 -15 106 -55.5t38 -102.5q0 -88 -69.5 -139.5t-176.5 -51.5q-71 0 -140 29.5t-120 81.5zM111 158l374 385l66 -62l-342 -415zM627 150v63l305 412h145v-387h103v-88h-103v-150h-119v150h-331zM760 238h198v114l11 168h-8l-91 -133zM780 862l344 416l99 -92l-375 -385z " />
<glyph unicode="&#xbf;" d="M252 -82q0 54 20.5 103t52.5 87.5t70 75t75 73t66 74.5t43.5 86.5t6.5 102.5h149q10 -60 -2 -113.5t-39.5 -94.5t-63 -78.5t-73.5 -72t-69.5 -68t-51.5 -74t-20 -82.5q0 -88 59 -142.5t168 -54.5q149 0 266 117l99 -93q-155 -165 -377 -165q-171 0 -275 86.5t-104 232.5z M496 862q0 70 43 114t106 44t107.5 -44t44.5 -114q0 -71 -44 -114t-108 -43q-63 0 -106 42.5t-43 114.5z" />
<glyph unicode="&#xc0;" d="M66 0l452 1343h193l452 -1343h-180l-127 410h-487l-129 -410h-174zM346 1675h193l180 -229h-141zM412 547h401l-63 205q-78 250 -134 452h-8q-63 -229 -133 -452z" />
<glyph unicode="&#xc1;" d="M66 0l452 1343h193l452 -1343h-180l-127 410h-487l-129 -410h-174zM412 547h401l-63 205q-78 250 -134 452h-8q-63 -229 -133 -452zM510 1446l180 229h193l-232 -229h-141z" />
<glyph unicode="&#xc2;" d="M66 0l452 1343h193l452 -1343h-180l-127 410h-487l-129 -410h-174zM336 1446l196 229h164l197 -229h-137l-138 139h-8l-137 -139h-137zM412 547h401l-63 205q-78 250 -134 452h-8q-63 -229 -133 -452z" />
<glyph unicode="&#xc3;" d="M66 0l452 1343h193l452 -1343h-180l-127 410h-487l-129 -410h-174zM317 1456q9 98 56 159.5t119 61.5q37 0 73.5 -16.5t60.5 -36.5t54 -36.5t55 -16.5q30 0 52.5 28t29.5 78h94q-9 -97 -56 -159t-118 -62q-46 0 -91 27t-83 53.5t-69 26.5q-30 0 -52.5 -28t-29.5 -79h-95z M412 547h401l-63 205q-78 250 -134 452h-8q-63 -229 -133 -452z" />
<glyph unicode="&#xc4;" d="M66 0l452 1343h193l452 -1343h-180l-127 410h-487l-129 -410h-174zM338 1565q0 44 28 72t72 28q43 0 72 -28t29 -72q0 -43 -29 -72t-72 -29q-44 0 -72 29t-28 72zM412 547h401l-63 205q-78 250 -134 452h-8q-63 -229 -133 -452zM690 1565q0 44 29 72t72 28q44 0 72 -28 t28 -72q0 -43 -28 -72t-72 -29q-43 0 -72 29t-29 72z" />
<glyph unicode="&#xc5;" d="M66 0l452 1343h193l452 -1343h-180l-127 410h-487l-129 -410h-174zM412 547h401l-63 205q-78 250 -134 452h-8q-63 -229 -133 -452zM424 1612q0 81 53 130.5t137 49.5q83 0 137 -49.5t54 -130.5q0 -82 -54 -131t-137 -49q-84 0 -137 49t-53 131zM516 1612 q0 -50 27.5 -78.5t70.5 -28.5q40 0 68.5 29t28.5 78q0 46 -28.5 75t-68.5 29q-42 0 -70 -29t-28 -75z" />
<glyph unicode="&#xc6;" d="M-2 0l532 1343h662v-143h-387v-420h301v-145h-301v-490h405v-145h-561v391h-323l-150 -391h-178zM379 528h270v680h-6q-29 -78 -87 -223.5t-83 -212.5z" />
<glyph unicode="&#xc7;" d="M135 672q0 319 166.5 507.5t433.5 188.5q113 0 207.5 -46t159.5 -118l-96 -108q-116 123 -271 123q-194 0 -309 -146.5t-115 -396.5q0 -253 115 -402t309 -149q168 0 301 149l99 -104q-160 -184 -379 -195l-39 -77q123 -42 123 -146q0 -83 -84 -129.5t-213 -58.5l-17 84 q183 24 183 98q0 38 -32.5 61t-98.5 39l69 134q-230 30 -371 213t-141 479z" />
<glyph unicode="&#xc8;" d="M236 0v1343h829v-143h-657v-422h555v-145h-555v-488h677v-145h-849zM410 1675h192l180 -229h-141z" />
<glyph unicode="&#xc9;" d="M236 0v1343h829v-143h-657v-422h555v-145h-555v-488h677v-145h-849zM573 1446l181 229h192l-231 -229h-142z" />
<glyph unicode="&#xca;" d="M236 0v1343h829v-143h-657v-422h555v-145h-555v-488h677v-145h-849zM399 1446l197 229h162l196 -229h-135l-137 139h-8l-137 -139h-138z" />
<glyph unicode="&#xcb;" d="M236 0v1343h829v-143h-657v-422h555v-145h-555v-488h677v-145h-849zM399 1565q0 44 29 72t72 28q44 0 72 -28t28 -72q0 -43 -28 -72t-72 -29q-43 0 -72 29t-29 72zM754 1565q0 44 28.5 72t71.5 28t71.5 -28t28.5 -72q0 -43 -28.5 -72t-71.5 -29t-71.5 29t-28.5 72z" />
<glyph unicode="&#xcc;" d="M195 0v145h333v1055h-333v143h839v-143h-334v-1055h334v-145h-839zM346 1675h193l180 -229h-141z" />
<glyph unicode="&#xcd;" d="M195 0v145h333v1055h-333v143h839v-143h-334v-1055h334v-145h-839zM510 1446l180 229h193l-232 -229h-141z" />
<glyph unicode="&#xce;" d="M195 0v145h333v1055h-333v143h839v-143h-334v-1055h334v-145h-839zM336 1446l196 229h164l197 -229h-137l-138 139h-8l-137 -139h-137z" />
<glyph unicode="&#xcf;" d="M195 0v145h333v1055h-333v143h839v-143h-334v-1055h334v-145h-839zM338 1565q0 44 28 72t72 28q43 0 72 -28t29 -72q0 -43 -29 -72t-72 -29q-44 0 -72 29t-28 72zM690 1565q0 44 29 72t72 28q44 0 72 -28t28 -72q0 -43 -28 -72t-72 -29q-43 0 -72 29t-29 72z" />
<glyph unicode="&#xd0;" d="M33 657v86l153 11v589h330q300 0 460.5 -172.5t160.5 -492.5q0 -322 -160 -500t-455 -178h-336v657h-153zM356 139h148q226 0 341.5 140t115.5 399q0 256 -115 391t-342 135h-148v-450h293v-97h-293v-518z" />
<glyph unicode="&#xd1;" d="M170 0v1343h174l436 -847l135 -275h5q-1 32 -12 188t-11 238v696h162v-1343h-174l-436 848l-136 274h-4q2 -40 12.5 -190t10.5 -230v-702h-162zM330 1456q9 98 55.5 159.5t118.5 61.5q46 0 91 -26.5t83.5 -53t69.5 -26.5q30 0 52 28t29 78h95q-9 -97 -56 -159t-118 -62 q-37 0 -73.5 16.5t-61 37t-54.5 37t-55 16.5q-30 0 -52.5 -28t-29.5 -79h-94z" />
<glyph unicode="&#xd2;" d="M98 678q0 318 142.5 504t373.5 186q230 0 373 -186.5t143 -503.5q0 -321 -143 -512t-373 -191t-373 191t-143 512zM274 678q0 -252 93 -402.5t247 -150.5t247 150.5t93 402.5q0 249 -92.5 395t-247.5 146t-247.5 -146t-92.5 -395zM346 1675h193l180 -229h-141z" />
<glyph unicode="&#xd3;" d="M98 678q0 318 142.5 504t373.5 186q230 0 373 -186.5t143 -503.5q0 -321 -143 -512t-373 -191t-373 191t-143 512zM274 678q0 -252 93 -402.5t247 -150.5t247 150.5t93 402.5q0 249 -92.5 395t-247.5 146t-247.5 -146t-92.5 -395zM510 1446l180 229h193l-232 -229h-141z " />
<glyph unicode="&#xd4;" d="M98 678q0 318 142.5 504t373.5 186q230 0 373 -186.5t143 -503.5q0 -321 -143 -512t-373 -191t-373 191t-143 512zM274 678q0 -252 93 -402.5t247 -150.5t247 150.5t93 402.5q0 249 -92.5 395t-247.5 146t-247.5 -146t-92.5 -395zM336 1446l196 229h164l197 -229h-137 l-138 139h-8l-137 -139h-137z" />
<glyph unicode="&#xd5;" d="M98 678q0 318 142.5 504t373.5 186q230 0 373 -186.5t143 -503.5q0 -321 -143 -512t-373 -191t-373 191t-143 512zM274 678q0 -252 93 -402.5t247 -150.5t247 150.5t93 402.5q0 249 -92.5 395t-247.5 146t-247.5 -146t-92.5 -395zM317 1456q9 98 56 159.5t119 61.5 q37 0 73.5 -16.5t60.5 -36.5t54 -36.5t55 -16.5q30 0 52.5 28t29.5 78h94q-9 -97 -56 -159t-118 -62q-46 0 -91 27t-83 53.5t-69 26.5q-30 0 -52.5 -28t-29.5 -79h-95z" />
<glyph unicode="&#xd6;" d="M98 678q0 318 142.5 504t373.5 186q230 0 373 -186.5t143 -503.5q0 -321 -143 -512t-373 -191t-373 191t-143 512zM274 678q0 -252 93 -402.5t247 -150.5t247 150.5t93 402.5q0 249 -92.5 395t-247.5 146t-247.5 -146t-92.5 -395zM338 1565q0 44 28 72t72 28q43 0 72 -28 t29 -72q0 -43 -29 -72t-72 -29q-44 0 -72 29t-28 72zM690 1565q0 44 29 72t72 28q44 0 72 -28t28 -72q0 -43 -28 -72t-72 -29q-43 0 -72 29t-29 72z" />
<glyph unicode="&#xd7;" d="M209 309l315 326l-315 323l90 93l315 -326l316 326l90 -93l-315 -323l315 -326l-90 -92l-316 328l-315 -328z" />
<glyph unicode="&#xd8;" d="M92 4l129 191q-123 191 -123 483q0 318 142.5 504t373.5 186q190 0 318 -125l110 162l97 -66l-129 -190q120 -180 120 -471q0 -321 -143 -512t-373 -191q-184 0 -315 125l-109 -161zM274 678q0 -193 56 -326l510 754q-89 113 -226 113q-155 0 -247.5 -146t-92.5 -395z M393 238q89 -113 221 -113q154 0 247 150.5t93 402.5q0 183 -51 313z" />
<glyph unicode="&#xd9;" d="M162 508v835h172v-839q0 -199 75.5 -289t206.5 -90t208 90.5t77 288.5v839h166v-835q0 -275 -121 -404t-330 -129q-102 0 -183 29.5t-142.5 92t-95 166.5t-33.5 245zM346 1675h193l180 -229h-141z" />
<glyph unicode="&#xda;" d="M162 508v835h172v-839q0 -199 75.5 -289t206.5 -90t208 90.5t77 288.5v839h166v-835q0 -275 -121 -404t-330 -129q-102 0 -183 29.5t-142.5 92t-95 166.5t-33.5 245zM510 1446l180 229h193l-232 -229h-141z" />
<glyph unicode="&#xdb;" d="M162 508v835h172v-839q0 -199 75.5 -289t206.5 -90t208 90.5t77 288.5v839h166v-835q0 -275 -121 -404t-330 -129q-102 0 -183 29.5t-142.5 92t-95 166.5t-33.5 245zM336 1446l196 229h164l197 -229h-137l-138 139h-8l-137 -139h-137z" />
<glyph unicode="&#xdc;" d="M162 508v835h172v-839q0 -199 75.5 -289t206.5 -90t208 90.5t77 288.5v839h166v-835q0 -275 -121 -404t-330 -129q-102 0 -183 29.5t-142.5 92t-95 166.5t-33.5 245zM338 1565q0 44 28 72t72 28q43 0 72 -28t29 -72q0 -43 -29 -72t-72 -29q-44 0 -72 29t-28 72zM690 1565 q0 44 29 72t72 28q44 0 72 -28t28 -72q0 -43 -28 -72t-72 -29q-43 0 -72 29t-29 72z" />
<glyph unicode="&#xdd;" d="M78 1343h180l203 -399q23 -47 73.5 -151t79.5 -162h9q28 58 81 163t76 152l195 397h176l-451 -864v-479h-172v479zM510 1446l180 229h193l-232 -229h-141z" />
<glyph unicode="&#xde;" d="M207 0v1343h172v-225h242q115 0 203 -21t155 -66.5t102 -123t35 -184.5q0 -207 -133 -311.5t-362 -104.5h-242v-307h-172zM379 446h219q178 0 263 66.5t85 210.5q0 140 -84 198t-264 58h-219v-533z" />
<glyph unicode="&#xdf;" d="M180 0v1063q0 191 111 305.5t301 114.5q156 0 246 -87.5t90 -215.5q0 -57 -19 -107.5t-46 -87t-54.5 -70.5t-46.5 -72.5t-19 -76.5q0 -40 22.5 -72t59 -55t80.5 -45t88 -49t80.5 -60.5t59 -85.5t22.5 -118q0 -132 -92 -219t-242 -87q-155 0 -295 93l68 118 q115 -80 223 -80q83 0 130.5 46.5t47.5 113.5q0 48 -23 86t-59 63.5t-80.5 48.5t-88.5 48t-80 54.5t-59 75t-23 103.5q0 62 29 120t63 96.5t63 94t29 113.5q0 78 -47 127.5t-129 49.5q-114 0 -178 -79t-64 -229v-1038h-168z" />
<glyph unicode="&#xe0;" d="M166 258q0 168 168 255t553 118q-3 112 -66 181t-198 69q-157 0 -349 -119l-65 115q89 59 206 101t236 42q199 0 301.5 -109.5t102.5 -300.5v-610h-137l-15 135h-6q-207 -160 -393 -160q-144 0 -241 76.5t-97 206.5zM330 270q0 -80 62.5 -119.5t156.5 -39.5 q161 0 338 147v262q-208 -17 -333 -52t-174.5 -82.5t-49.5 -115.5zM408 1477h182l186 -303h-129z" />
<glyph unicode="&#xe1;" d="M166 258q0 168 168 255t553 118q-3 112 -66 181t-198 69q-157 0 -349 -119l-65 115q89 59 206 101t236 42q199 0 301.5 -109.5t102.5 -300.5v-610h-137l-15 135h-6q-207 -160 -393 -160q-144 0 -241 76.5t-97 206.5zM330 270q0 -80 62.5 -119.5t156.5 -39.5 q161 0 338 147v262q-208 -17 -333 -52t-174.5 -82.5t-49.5 -115.5zM508 1174l186 303h183l-238 -303h-131z" />
<glyph unicode="&#xe2;" d="M166 258q0 168 168 255t553 118q-3 112 -66 181t-198 69q-157 0 -349 -119l-65 115q89 59 206 101t236 42q199 0 301.5 -109.5t102.5 -300.5v-610h-137l-15 135h-6q-207 -160 -393 -160q-144 0 -241 76.5t-97 206.5zM330 270q0 -80 62.5 -119.5t156.5 -39.5 q161 0 338 147v262q-208 -17 -333 -52t-174.5 -82.5t-49.5 -115.5zM371 1174l198 303h146l198 -303h-129l-137 202h-8l-137 -202h-131z" />
<glyph unicode="&#xe3;" d="M166 258q0 168 168 255t553 118q-3 112 -66 181t-198 69q-157 0 -349 -119l-65 115q89 59 206 101t236 42q199 0 301.5 -109.5t102.5 -300.5v-610h-137l-15 135h-6q-207 -160 -393 -160q-144 0 -241 76.5t-97 206.5zM330 270q0 -80 62.5 -119.5t156.5 -39.5 q161 0 338 147v262q-208 -17 -333 -52t-174.5 -82.5t-49.5 -115.5zM352 1186q9 102 54.5 162.5t125.5 60.5q33 0 66.5 -17.5t56.5 -38t50 -38t49 -17.5q64 0 82 111h96q-10 -101 -55 -162t-123 -61q-34 0 -67.5 17.5t-56.5 38.5t-50.5 38.5t-49.5 17.5q-33 0 -52.5 -27 t-28.5 -85h-97z" />
<glyph unicode="&#xe4;" d="M166 258q0 168 168 255t553 118q-3 112 -66 181t-198 69q-157 0 -349 -119l-65 115q89 59 206 101t236 42q199 0 301.5 -109.5t102.5 -300.5v-610h-137l-15 135h-6q-207 -160 -393 -160q-144 0 -241 76.5t-97 206.5zM330 270q0 -80 62.5 -119.5t156.5 -39.5 q161 0 338 147v262q-208 -17 -333 -52t-174.5 -82.5t-49.5 -115.5zM334 1317q0 48 31.5 80.5t78.5 32.5q49 0 80 -32.5t31 -80.5t-31 -80.5t-80 -32.5q-47 0 -78.5 32.5t-31.5 80.5zM729 1317q0 48 31 80.5t80 32.5t79.5 -32.5t30.5 -80.5t-30.5 -80.5t-79.5 -32.5t-80 32.5 t-31 80.5z" />
<glyph unicode="&#xe5;" d="M166 258q0 168 168 255t553 118q-3 112 -66 181t-198 69q-157 0 -349 -119l-65 115q89 59 206 101t236 42q199 0 301.5 -109.5t102.5 -300.5v-610h-137l-15 135h-6q-207 -160 -393 -160q-144 0 -241 76.5t-97 206.5zM330 270q0 -80 62.5 -119.5t156.5 -39.5 q161 0 338 147v262q-208 -17 -333 -52t-174.5 -82.5t-49.5 -115.5zM451 1300q0 84 53.5 136.5t138.5 52.5q84 0 137.5 -52.5t53.5 -136.5q0 -85 -53.5 -137.5t-137.5 -52.5q-85 0 -138.5 52t-53.5 138zM543 1300q0 -51 29 -82.5t71 -31.5q41 0 69.5 31.5t28.5 82.5 q0 50 -28.5 81.5t-69.5 31.5q-42 0 -71 -31.5t-29 -81.5z" />
<glyph unicode="&#xe6;" d="M35 264q0 148 127 238t381 129q-3 252 -178 252q-51 0 -117.5 -25t-116.5 -59l-63 114q166 107 317 107q93 0 156 -55t92 -146q104 201 289 201q98 0 167.5 -64t101.5 -164.5t32 -226.5q0 -29 -9 -108h-528q6 -160 69.5 -253t180.5 -93q94 0 197 63l59 -111 q-127 -88 -262 -88q-200 0 -305 187q-172 -187 -324 -187q-122 0 -194 78t-72 211zM190 272q0 -78 40.5 -119.5t111.5 -41.5q54 0 117 38t116 107q-29 85 -32 213l-2 51q-185 -32 -268 -91.5t-83 -156.5zM684 569h397q0 67 -9 122t-28 100.5t-54 70.5t-83 25 q-95 0 -154.5 -84.5t-68.5 -233.5z" />
<glyph unicode="&#xe7;" d="M164 496q0 122 44.5 222.5t120.5 165.5t176.5 100.5t213.5 35.5q212 0 362 -146l-84 -108q-131 115 -272 115q-172 0 -279.5 -106.5t-107.5 -278.5q0 -170 105.5 -275.5t277.5 -105.5q159 0 309 125l74 -109q-152 -139 -348 -154l-37 -79q121 -42 121 -146 q0 -83 -84 -129.5t-213 -58.5l-17 84q183 24 183 98q0 38 -32.5 61t-98.5 39l67 131q-215 19 -348 156.5t-133 362.5z" />
<glyph unicode="&#xe8;" d="M141 496q0 118 42.5 218.5t113.5 166.5t162 102.5t188 36.5q212 0 332.5 -127t120.5 -340q0 -55 -6 -92h-779q9 -160 113 -255t268 -95q155 0 303 92l60 -111q-182 -117 -383 -117q-111 0 -208 36t-170 101.5t-115 165t-42 218.5zM313 571h631q0 151 -78 233.5t-217 82.5 q-126 0 -222 -85t-114 -231zM410 1477h182l186 -303h-131z" />
<glyph unicode="&#xe9;" d="M141 496q0 118 42.5 218.5t113.5 166.5t162 102.5t188 36.5q212 0 332.5 -127t120.5 -340q0 -55 -6 -92h-779q9 -160 113 -255t268 -95q155 0 303 92l60 -111q-182 -117 -383 -117q-111 0 -208 36t-170 101.5t-115 165t-42 218.5zM313 571h631q0 151 -78 233.5t-217 82.5 q-126 0 -222 -85t-114 -231zM510 1174l186 303h183l-238 -303h-131z" />
<glyph unicode="&#xea;" d="M141 496q0 118 42.5 218.5t113.5 166.5t162 102.5t188 36.5q212 0 332.5 -127t120.5 -340q0 -55 -6 -92h-779q9 -160 113 -255t268 -95q155 0 303 92l60 -111q-182 -117 -383 -117q-111 0 -208 36t-170 101.5t-115 165t-42 218.5zM313 571h631q0 151 -78 233.5t-217 82.5 q-126 0 -222 -85t-114 -231zM373 1174l198 303h146l198 -303h-131l-135 202h-8l-137 -202h-131z" />
<glyph unicode="&#xeb;" d="M141 496q0 118 42.5 218.5t113.5 166.5t162 102.5t188 36.5q212 0 332.5 -127t120.5 -340q0 -55 -6 -92h-779q9 -160 113 -255t268 -95q155 0 303 92l60 -111q-182 -117 -383 -117q-111 0 -208 36t-170 101.5t-115 165t-42 218.5zM313 571h631q0 151 -78 233.5t-217 82.5 q-126 0 -222 -85t-114 -231zM338 1317q0 48 30.5 80.5t77.5 32.5q49 0 80 -32.5t31 -80.5t-31 -80.5t-80 -32.5q-47 0 -77.5 32.5t-30.5 80.5zM731 1317q0 48 31 80.5t80 32.5t79.5 -32.5t30.5 -80.5t-30.5 -80.5t-79.5 -32.5t-80 32.5t-31 80.5z" />
<glyph unicode="&#xec;" d="M184 858v137h631v-995h-168v858h-463zM477 1477h185l184 -303h-129z" />
<glyph unicode="&#xed;" d="M184 858v137h631v-995h-168v858h-463zM580 1174l184 303h182l-237 -303h-129z" />
<glyph unicode="&#xee;" d="M184 858v137h631v-995h-168v858h-463zM442 1174l197 303h145l199 -303h-129l-137 202h-8l-138 -202h-129z" />
<glyph unicode="&#xef;" d="M184 858v137h631v-995h-168v858h-463zM406 1317q0 48 30.5 80.5t77.5 32.5q49 0 80 -32.5t31 -80.5t-31 -80.5t-80 -32.5q-47 0 -77.5 32.5t-30.5 80.5zM799 1317q0 48 30.5 80.5t79.5 32.5t80 -32.5t31 -80.5t-31 -80.5t-80 -32.5t-79.5 32.5t-30.5 80.5z" />
<glyph unicode="&#xf0;" d="M123 455q0 207 131 333.5t336 126.5q95 0 181.5 -43.5t143.5 -119.5q-52 260 -247 430l-308 -158l-47 84l271 139q-99 70 -246 142l78 106q179 -84 303 -178l276 141l47 -84l-243 -125q299 -276 299 -723q0 -248 -132.5 -399.5t-355.5 -151.5q-130 0 -240 57t-178.5 168 t-68.5 255zM281 455q0 -150 96.5 -245t236.5 -95q158 0 240 110t82 295q0 61 -2 90q-132 174 -320 174q-159 0 -246 -91.5t-87 -237.5z" />
<glyph unicode="&#xf1;" d="M190 0v995h140l14 -170h8q87 93 176.5 144t198.5 51q344 0 344 -402v-618h-168v596q0 143 -54 210.5t-175 67.5q-85 0 -153.5 -41.5t-162.5 -138.5v-694h-168zM360 1186q11 102 56.5 162.5t124.5 60.5q33 0 67 -17.5t57 -38t49.5 -38t47.5 -17.5q63 0 84 111h94 q-10 -101 -55 -162t-123 -61q-34 0 -67.5 17.5t-56 38.5t-50 38.5t-49.5 17.5q-64 0 -82 -112h-97z" />
<glyph unicode="&#xf2;" d="M123 496q0 122 40 222.5t107.5 165.5t156 100.5t187.5 35.5t187.5 -35.5t156.5 -100.5t108 -165.5t40 -222.5q0 -120 -40 -220t-108 -165t-156.5 -100.5t-187.5 -35.5t-187.5 35.5t-156 100.5t-107.5 165t-40 220zM297 496q0 -170 87.5 -275.5t229.5 -105.5t230 105.5 t88 275.5q0 172 -88 278.5t-230 106.5t-229.5 -106.5t-87.5 -278.5zM379 1477h184l185 -303h-130z" />
<glyph unicode="&#xf3;" d="M123 496q0 122 40 222.5t107.5 165.5t156 100.5t187.5 35.5t187.5 -35.5t156.5 -100.5t108 -165.5t40 -222.5q0 -120 -40 -220t-108 -165t-156.5 -100.5t-187.5 -35.5t-187.5 35.5t-156 100.5t-107.5 165t-40 220zM297 496q0 -170 87.5 -275.5t229.5 -105.5t230 105.5 t88 275.5q0 172 -88 278.5t-230 106.5t-229.5 -106.5t-87.5 -278.5zM481 1174l185 303h184l-240 -303h-129z" />
<glyph unicode="&#xf4;" d="M123 496q0 122 40 222.5t107.5 165.5t156 100.5t187.5 35.5t187.5 -35.5t156.5 -100.5t108 -165.5t40 -222.5q0 -120 -40 -220t-108 -165t-156.5 -100.5t-187.5 -35.5t-187.5 35.5t-156 100.5t-107.5 165t-40 220zM297 496q0 -170 87.5 -275.5t229.5 -105.5t230 105.5 t88 275.5q0 172 -88 278.5t-230 106.5t-229.5 -106.5t-87.5 -278.5zM344 1174l199 303h143l199 -303h-129l-138 202h-8l-137 -202h-129z" />
<glyph unicode="&#xf5;" d="M123 496q0 122 40 222.5t107.5 165.5t156 100.5t187.5 35.5t187.5 -35.5t156.5 -100.5t108 -165.5t40 -222.5q0 -120 -40 -220t-108 -165t-156.5 -100.5t-187.5 -35.5t-187.5 35.5t-156 100.5t-107.5 165t-40 220zM297 496q0 -170 87.5 -275.5t229.5 -105.5t230 105.5 t88 275.5q0 172 -88 278.5t-230 106.5t-229.5 -106.5t-87.5 -278.5zM324 1186q11 102 56.5 162.5t123.5 60.5q33 0 67 -17.5t57 -38t50 -38t49 -17.5q64 0 82 111h96q-11 -101 -56.5 -162t-123.5 -61q-34 0 -67.5 17.5t-56 38.5t-50 38.5t-49.5 17.5q-64 0 -82 -112h-96z " />
<glyph unicode="&#xf6;" d="M123 496q0 122 40 222.5t107.5 165.5t156 100.5t187.5 35.5t187.5 -35.5t156.5 -100.5t108 -165.5t40 -222.5q0 -120 -40 -220t-108 -165t-156.5 -100.5t-187.5 -35.5t-187.5 35.5t-156 100.5t-107.5 165t-40 220zM297 496q0 -170 87.5 -275.5t229.5 -105.5t230 105.5 t88 275.5q0 172 -88 278.5t-230 106.5t-229.5 -106.5t-87.5 -278.5zM307 1317q0 48 31 80.5t80 32.5q47 0 78.5 -32.5t31.5 -80.5t-31.5 -80.5t-78.5 -32.5q-49 0 -80 32.5t-31 80.5zM700 1317q0 47 32 80t79 33q49 0 80 -32.5t31 -80.5t-31 -80.5t-80 -32.5q-47 0 -79 33 t-32 80z" />
<glyph unicode="&#xf7;" d="M174 571v127h881v-127h-881zM504 266q0 47 31.5 78t78.5 31t79 -31t32 -78q0 -49 -31.5 -79.5t-79.5 -30.5t-79 30.5t-31 79.5zM504 1004q0 47 31.5 77.5t78.5 30.5q48 0 79.5 -30.5t31.5 -77.5q0 -49 -31.5 -80t-79.5 -31t-79 31t-31 80z" />
<glyph unicode="&#xf8;" d="M123 496q0 122 40 222.5t107.5 165.5t156 100.5t187.5 35.5q168 0 299 -98l105 120l76 -59l-109 -127q121 -144 121 -360q0 -120 -40 -220t-108 -165t-156.5 -100.5t-187.5 -35.5q-167 0 -299 99l-104 -121l-76 59l109 127q-121 144 -121 357zM297 496q0 -134 55 -230 l463 541q-81 78 -201 78q-142 0 -229.5 -108.5t-87.5 -280.5zM412 188q83 -77 202 -77q142 0 230 107t88 278q0 134 -55 233z" />
<glyph unicode="&#xf9;" d="M158 377v618h170v-596q0 -144 53.5 -211t175.5 -67q84 0 154 42.5t155 141.5v690h168v-995h-137l-14 174h-9q-170 -199 -370 -199q-346 0 -346 402zM369 1477h182l186 -303h-129z" />
<glyph unicode="&#xfa;" d="M158 377v618h170v-596q0 -144 53.5 -211t175.5 -67q84 0 154 42.5t155 141.5v690h168v-995h-137l-14 174h-9q-170 -199 -370 -199q-346 0 -346 402zM469 1174l186 303h183l-238 -303h-131z" />
<glyph unicode="&#xfb;" d="M158 377v618h170v-596q0 -144 53.5 -211t175.5 -67q84 0 154 42.5t155 141.5v690h168v-995h-137l-14 174h-9q-170 -199 -370 -199q-346 0 -346 402zM332 1174l198 303h146l198 -303h-129l-137 202h-8l-137 -202h-131z" />
<glyph unicode="&#xfc;" d="M158 377v618h170v-596q0 -144 53.5 -211t175.5 -67q84 0 154 42.5t155 141.5v690h168v-995h-137l-14 174h-9q-170 -199 -370 -199q-346 0 -346 402zM297 1317q0 48 31 80.5t78 32.5q49 0 79.5 -32.5t30.5 -80.5t-30.5 -80.5t-79.5 -32.5q-47 0 -78 32.5t-31 80.5z M690 1317q0 48 31 80.5t80 32.5t79.5 -32.5t30.5 -80.5t-30.5 -80.5t-79.5 -32.5t-80 32.5t-31 80.5z" />
<glyph unicode="&#xfd;" d="M100 995h170l244 -551q17 -39 37.5 -87t46 -108.5t39.5 -92.5h8q92 247 107 288l217 551h159l-438 -1077q-130 -346 -422 -346q-73 0 -131 20l35 134q51 -15 90 -15q188 0 273 213l30 74zM489 1174l185 303h184l-240 -303h-129z" />
<glyph unicode="&#xfe;" d="M190 -420v1878h168v-411l-4 -179q74 71 162 111.5t174 40.5q198 0 307 -136.5t109 -371.5q0 -123 -37.5 -226t-100.5 -170t-144.5 -104t-170.5 -37q-72 0 -150 34.5t-147 94.5l2 -188v-336h-168zM358 233q66 -59 137.5 -87.5t129.5 -28.5q134 0 220.5 107t86.5 288 q0 172 -69.5 269.5t-213.5 97.5q-141 0 -291 -150v-496z" />
<glyph unicode="&#xff;" d="M100 995h170l244 -551q17 -39 37.5 -87t46 -108.5t39.5 -92.5h8q92 247 107 288l217 551h159l-438 -1077q-130 -346 -422 -346q-73 0 -131 20l35 134q51 -15 90 -15q188 0 273 213l30 74zM315 1317q0 48 31 80.5t80 32.5t80 -32.5t31 -80.5t-31 -80.5t-80 -32.5t-80 32.5 t-31 80.5zM711 1317q0 48 30.5 80.5t79.5 32.5q47 0 78 -32.5t31 -80.5t-31 -80.5t-78 -32.5q-49 0 -79.5 32.5t-30.5 80.5z" />
<glyph unicode="&#x152;" d="M68 678q0 319 143.5 493.5t400.5 174.5h578v-144h-397v-424h303v-145h-303v-488h417v-145h-604q-253 0 -395.5 179t-142.5 499zM244 678q0 -260 87.5 -399.5t260.5 -139.5h43v1065h-43q-174 0 -261 -134t-87 -392z" />
<glyph unicode="&#x153;" d="M23 498q0 242 101.5 382t258.5 140q95 0 167 -62.5t112 -177.5q88 240 272 240q135 0 211 -130.5t76 -324.5q0 -58 -7 -108h-493q8 -160 68.5 -253t168.5 -93q81 0 175 63l59 -111q-118 -88 -240 -88q-97 0 -171.5 59t-118.5 171q-87 -230 -279 -230q-158 0 -259 140 t-101 383zM180 498q0 -175 54.5 -280t156.5 -105q92 0 147.5 107t55.5 278t-55.5 277t-147.5 106q-102 0 -156.5 -104t-54.5 -279zM719 569h362q0 66 -8 121t-26 100.5t-49.5 71t-75.5 25.5q-88 0 -139.5 -83.5t-63.5 -234.5z" />
<glyph unicode="&#x178;" d="M78 1343h180l203 -399q23 -47 73.5 -151t79.5 -162h9q28 58 81 163t76 152l195 397h176l-451 -864v-479h-172v479zM338 1565q0 44 28 72t72 28q43 0 72 -28t29 -72q0 -43 -29 -72t-72 -29q-44 0 -72 29t-28 72zM690 1565q0 44 29 72t72 28q44 0 72 -28t28 -72 q0 -43 -28 -72t-72 -29q-43 0 -72 29t-29 72z" />
<glyph unicode="&#x2c6;" d="M344 1174l199 303h143l199 -303h-129l-138 202h-8l-137 -202h-129z" />
<glyph unicode="&#x2dc;" d="M324 1186q11 102 56.5 162.5t123.5 60.5q33 0 67 -17.5t57 -38t50 -38t49 -17.5q64 0 82 111h96q-11 -101 -56.5 -162t-123.5 -61q-34 0 -67.5 17.5t-56 38.5t-50 38.5t-49.5 17.5q-64 0 -82 -112h-96z" />
<glyph unicode="&#x2000;" horiz-adv-x="896" />
<glyph unicode="&#x2001;" horiz-adv-x="1792" />
<glyph unicode="&#x2002;" horiz-adv-x="896" />
<glyph unicode="&#x2003;" horiz-adv-x="1792" />
<glyph unicode="&#x2004;" horiz-adv-x="597" />
<glyph unicode="&#x2005;" horiz-adv-x="448" />
<glyph unicode="&#x2006;" horiz-adv-x="298" />
<glyph unicode="&#x2007;" horiz-adv-x="298" />
<glyph unicode="&#x2008;" horiz-adv-x="224" />
<glyph unicode="&#x2009;" horiz-adv-x="358" />
<glyph unicode="&#x200a;" horiz-adv-x="99" />
<glyph unicode="&#x2010;" d="M274 526v148h680v-148h-680z" />
<glyph unicode="&#x2011;" d="M274 526v148h680v-148h-680z" />
<glyph unicode="&#x2012;" d="M274 526v148h680v-148h-680z" />
<glyph unicode="&#x2013;" d="M164 526v148h901v-148h-901z" />
<glyph unicode="&#x2014;" d="M41 526v148h1147v-148h-1147z" />
<glyph unicode="&#x2018;" d="M428 963q0 153 78 275.5t217 193.5l55 -99q-199 -116 -211 -323q24 12 54 12q63 0 103 -41.5t40 -106.5q0 -70 -42.5 -113.5t-109.5 -43.5q-81 0 -132.5 66.5t-51.5 179.5z" />
<glyph unicode="&#x2019;" d="M444 815q201 112 213 324q-26 -13 -53 -13q-64 0 -104.5 40.5t-40.5 105.5q0 70 42.5 115t108.5 45q83 0 134 -66.5t51 -181.5q0 -152 -77.5 -274t-215.5 -193z" />
<glyph unicode="&#x201a;" d="M444 -365q201 112 213 324q-24 -12 -53 -12q-65 0 -105 40.5t-40 106.5q0 69 42.5 113.5t108.5 44.5q83 0 134 -66.5t51 -181.5q0 -152 -77.5 -274t-215.5 -193z" />
<glyph unicode="&#x201c;" d="M195 963q0 153 76.5 275.5t215.5 193.5l56 -99q-198 -116 -213 -323q27 12 55 12q63 0 103 -41.5t40 -106.5q0 -70 -41.5 -113.5t-107.5 -43.5q-83 0 -133.5 66t-50.5 180zM664 963q0 153 77.5 275.5t216.5 193.5l56 -99q-200 -115 -215 -323q27 12 55 12 q64 0 104.5 -41.5t40.5 -106.5q0 -70 -42.5 -113.5t-108.5 -43.5q-81 0 -132.5 66.5t-51.5 179.5z" />
<glyph unicode="&#x201d;" d="M211 815q199 113 211 324q-26 -13 -53 -13q-63 0 -103.5 41t-40.5 105q0 70 42 115t108 45q83 0 133.5 -66.5t50.5 -181.5q0 -153 -77 -274.5t-216 -192.5zM680 815q199 115 211 322q-29 -11 -51 -11q-64 0 -105 41t-41 105q0 70 43 115t109 45q81 0 132.5 -66.5 t51.5 -181.5q0 -152 -78 -274t-217 -193z" />
<glyph unicode="&#x201e;" d="M211 -365q199 113 211 324q-24 -12 -53 -12q-63 0 -103.5 40.5t-40.5 106.5q0 69 42 113.5t108 44.5q83 0 133.5 -66.5t50.5 -181.5q0 -153 -77 -274.5t-216 -192.5zM680 -365q199 115 211 322q-27 -10 -51 -10q-65 0 -105.5 40.5t-40.5 106.5q0 69 43 113.5t109 44.5 q81 0 132.5 -66.5t51.5 -181.5q0 -152 -78 -274t-217 -193z" />
<glyph unicode="&#x2022;" d="M309 621q0 132 90 216.5t215 84.5t215.5 -85t90.5 -216q0 -130 -90.5 -216t-215.5 -86t-215 85.5t-90 216.5z" />
<glyph unicode="&#x2026;" d="M66 129q0 68 41 111t102 43q60 0 100.5 -43t40.5 -111q0 -67 -41 -110.5t-100 -43.5q-61 0 -102 43.5t-41 110.5zM471 129q0 68 41 111t102 43t102.5 -43t41.5 -111q0 -67 -41.5 -110.5t-102.5 -43.5t-102 43.5t-41 110.5zM879 129q0 68 40.5 111t100.5 43q61 0 102 -43 t41 -111q0 -67 -41 -110.5t-102 -43.5q-59 0 -100 43.5t-41 110.5z" />
<glyph unicode="&#x202f;" horiz-adv-x="358" />
<glyph unicode="&#x2039;" d="M403 434v164l314 328l80 -72l-260 -338l260 -340l-80 -70z" />
<glyph unicode="&#x203a;" d="M432 176l260 340l-260 338l80 72l313 -328v-164l-313 -328z" />
<glyph unicode="&#x205f;" horiz-adv-x="448" />
<glyph unicode="&#x20ac;" d="M119 481v88l121 9q-2 25 -2 73q0 46 2 66h-121v90l131 10q38 241 183 377.5t362 136.5q100 0 190.5 -44t155.5 -116l-101 -96q-118 121 -252 121q-149 0 -242.5 -99.5t-121.5 -279.5h602v-100h-612q-2 -18 -2 -60q0 -52 2 -77h530v-99h-518q30 -175 120.5 -272.5 t229.5 -97.5q85 0 152 36t131 109l100 -90q-164 -191 -393 -191q-201 0 -339.5 134t-176.5 372h-131z" />
<glyph unicode="&#x2122;" d="M-10 1274v110h516v-110h-197v-524h-123v524h-196zM598 750v634h145l93 -233l55 -164h8l53 164l90 233h146v-634h-113v280l15 215h-9l-145 -383h-86l-148 383h-8l15 -215v-280h-111z" />
<glyph unicode="&#xe000;" horiz-adv-x="993" d="M0 0v993h993v-993h-993z" />
<glyph unicode="&#xfb01;" d="M106 858v127l136 10v158q0 157 72 243.5t218 86.5q83 0 166 -33l-34 -129q-61 25 -113 25q-141 0 -141 -193v-158h211v-137h-211v-858h-168v858h-136zM793 1331q0 58 40 94.5t99 36.5t98 -36.5t39 -94.5t-39 -94.5t-98 -36.5t-99 36.5t-40 94.5zM848 0v995h168v-995h-168 z" />
<glyph unicode="&#xfb02;" d="M117 858v127l135 10v158q0 157 72.5 243.5t218.5 86.5q83 0 166 -33l-37 -129q-58 25 -113 25q-139 0 -139 -193v-158h211v-137h-211v-858h-168v858h-135zM821 201v1257h168v-1270q0 -37 13 -55t34 -18q19 0 37 4l23 -127q-42 -17 -97 -17q-93 0 -135.5 57t-42.5 169z " />
</font>
</defs>
</svg>
